+ Reply to Thread
Results 1 to 1 of 1

Dangal (2016) Hindi 720p DVDRip x264 AAC 5 1 ESub - Hon3y

  1. #1
    Hon3y's Avatar
    Hon3y is offline Where Speed & Quality Matters

    Join Date
    Dec 2016
    Posts
    325
    Thanks
    0
    Thanked 214 Times in 126 Posts
    My Mood
    Happy
    Rep Power
    7

    Dangal (2016) Hindi 720p DVDRip x264 AAC 5 1 ESub - Hon3y


    Dangal (2016) Hindi 720p DVDRip x264 AAC 5.1 ESub...Hon3y

    General
    Format : Matroska
    Format version : Version 4 / Version 2
    File size : 1.07 GiB
    Duration : 2 h 41 min
    Overall bit rate : 947 kb/s
    Movie name : [email protected]

    Video
    Format : AVC
    Format/Info : Advanced Video Codec
    Format profile : [email protected]
    Format settings, CABAC : Yes
    Format settings, ReFrames : 12 frames
    Codec ID : V_MPEG4/ISO/AVC
    Duration : 2 h 41 min
    Bit rate : 755 kb/s
    Width : 1 280 pixels
    Height : 544 pixels
    Display aspect ratio : 2.35:1
    Frame rate mode : Constant
    Frame rate : 23.976 (24000/1001) FPS
    Color space : YUV
    Chroma subsampling : 4:2:0
    Bit depth : 8 bits
    Scan type : Progressive
    Bits/(Pixel*Frame) : 0.045
    Stream size : 870 MiB (80%)
    Title : [email protected]

    Audio
    Format : AAC
    Format/Info : Advanced Audio Codec
    Format profile : LC
    Codec ID : A_AAC
    Duration : 2 h 41 min
    Bit rate : 192 kb/s
    Channel(s) : 6 channels
    Channel positions : Front: L C R, Side: L R, LFE
    Sampling rate : 48.0 kHz
    Frame rate : 46.875 FPS (1024 spf)
    Compression mode : Lossy
    Delay relative to video : 9 ms
    Stream size : 219 MiB (20%)
    Title : [email protected]
    Language : Hindi
    Default : Yes

    Subtitle
    Format : UTF-8
    Codec ID : S_TEXT/UTF8
    Codec ID/Info : UTF-8 Plain Text
    Duration : 2 h 33 min
    Bit rate : 55 b/s
    Count of elements : 1952
    Stream size : 62.1 KiB (0%)
    Title : English [email protected]
    Language : English
    Default : Yes

    Chapters Menu
    00:00:00.000 : en:Chapter 01
    00:10:35.035 : en:Chapter 02
    00:16:24.736 : en:Chapter 03
    00:20:59.303 : en:Chapter 04
    00:28:13.338 : en:Chapter 05
    00:32:36.405 : en:Chapter 06
    00:36:23.739 : en:Chapter 07
    00:43:45.707 : en:Chapter 08
    00:47:32.241 : en:Chapter 09
    00:56:44.241 : en:Chapter 10
    00:59:55.576 : en:Chapter 11
    01:02:49.143 : en:Chapter 12
    01:12:09.677 : en:Chapter 13
    01:15:29.011 : en:Chapter 14
    01:26:26.145 : en:Chapter 15
    01:34:06.747 : en:Chapter 16
    01:41:24.581 : en:Chapter 17
    01:45:19.848 : en:Chapter 18
    01:51:12.981 : en:Chapter 19
    01:56:50.981 : en:Chapter 20
    02:04:12.915 : en:Chapter 21
    02:13:33.915 : en:Chapter 22
    02:18:21.015 : en:Chapter 23
    02:31:54.682 : en:Chapter 24
    02:41:02.982 : en:Chapter 25















  2. The Following User Says Thank You to Hon3y For This Useful Post:


+ Reply to Thread

Similar Threads

  1. Dangal 2016 Hindi Pre-DvDRip x264 AAC (Studio Audio) E-Sub - Hon3y
    By MAAXHD in forum Encoders/Uploaders :: Hindi Movies
    Replies: 5
    Last Post: 01-07-2017, 09:58 AM
  2. Dangal (2016) Hindi 1CD Desi Pre-DvDRip x264 AAC - Source: Hon3y
    By MobiMalik in forum Bollywood Latest Movies
    Replies: 1
    Last Post: 12-27-2016, 06:29 AM
  3. Dangal (2016) Hindi 1CD Desi Pre-DvDRip x264 AAC - Source: Hon3y
    By Unicc_Supplier in forum Bollywood Latest Movies
    Replies: 3
    Last Post: 12-27-2016, 06:28 AM
  4. Replies: 0
    Last Post: 03-28-2016, 01:32 PM
  5. Replies: 0
    Last Post: 03-19-2016, 11:34 AM

Posting Permissions

  • You may not post new threads
  • You may not post replies
  • You may not post attachments
  • You may not edit your posts

Disclaimer: This site does not store any files on its server. All contents are provided by non-affiliated third parties.