+ Reply to Thread
Results 1 to 1 of 1

Teshan 2016 [Punjabi] 720p Web-HD AVC AAC Esub - Hon3y [Exclusive]

  1. #1
    Hon3y's Avatar
    Hon3y is offline Where Speed & Quality Matters

    Join Date
    Dec 2016
    Posts
    323
    Thanks
    0
    Thanked 208 Times in 122 Posts
    My Mood
    Happy
    Rep Power
    7

    Teshan 2016 [Punjabi] 720p Web-HD AVC AAC Esub - Hon3y [Exclusive]

    Teshan (2016) [Punjabi] 720p Untouched Web-HD AVC AAC - Hon3yHD [Exclusive]



    Format : Matroska
    File size : 2.65 GiB
    Duration : 2 h 14 min
    Overall bit rate : 2 826 kb/s

    Video
    ID : 1
    Format : AVC
    Format/Info : Advanced Video Codec
    Format profile : [email protected]
    Format settings, CABAC : No
    Format settings, ReFrames : 1 frame
    Codec ID : V_MPEG4/ISO/AVC
    Duration : 2 h 14 min
    Bit rate : 2 696 kb/s
    Width : 1 280 pixels
    Height : 538 pixels
    Display aspect ratio : 2.40:1
    Frame rate mode : Constant
    Frame rate : 24.000 FPS
    Stream size : 2.53 GiB (95%)

    Audio
    ID : 2
    Format : AAC
    Format/Info : Advanced Audio Codec
    Format profile : LC
    Codec ID : A_AAC
    Duration : 2 h 14 min
    Bit rate : 128 kb/s
    Channel(s) : 2 channels
    Channel positions : Front: L R
    Sampling rate : 44.1 kHz
    Frame rate : 43.066 FPS (1024 spf)
    Stream size : 123 MiB (5%)




+ Reply to Thread

Similar Threads

  1. Gelo (2016) [Punjabi] 720p Web-HD AVC AAC Esub - Hon3y
    By Hon3y in forum Encoders/Uploaders :: Hindi Movies
    Replies: 0
    Last Post: 05-17-2017, 03:31 PM
  2. Punjab 1984 (2014) [Punjabi] 720p Web-HD AVC AAC Esub - Hon3y
    By Hon3y in forum Encoders/Uploaders :: Hindi Movies
    Replies: 0
    Last Post: 05-17-2017, 09:52 AM
  3. Sardaar Ji (2015) [Punjabi] 720p Web-HD AVC AAC Esub - Hon3y
    By Hon3y in forum Encoders/Uploaders :: Hindi Movies
    Replies: 0
    Last Post: 05-17-2017, 09:46 AM
  4. Eh Janam Tumhare Lekhe (2015) [Punjabi] 720p Web-HD AVC AAC Esub - Hon3y
    By Hon3y in forum Encoders/Uploaders :: Hindi Movies
    Replies: 0
    Last Post: 05-16-2017, 12:21 PM
  5. Replies: 1
    Last Post: 02-16-2017, 04:16 PM

Posting Permissions

  • You may not post new threads
  • You may not post replies
  • You may not post attachments
  • You may not edit your posts

Disclaimer: This site does not store any files on its server. All contents are provided by non-affiliated third parties.